<?xml version="1.0" standalone="no"?>
<!DOCTYPE svg PUBLIC "-//W3C//DTD SVG 1.1//EN" "http://www.w3.org/Graphics/SVG/1.1/DTD/svg11.dtd">
<svg xmlns="http://www.w3.org/2000/svg">
<metadata>Generated by Fontastic.me</metadata>
<defs>
<font id="benedict" horiz-adv-x="512">
<font-face font-family="benedict" units-per-em="512" ascent="480" descent="-32"/>
<missing-glyph horiz-adv-x="512" />

<glyph glyph-name="admin-user" unicode="&#97;" d="M246 506c-16 0 4-4-6-7-10 0-16-3-26-3-22-10-35-29-38-51 0-13 0-23 0-35 3-13-22-13-22-13-16 0-10-48-10-48 0-13 10-26 26-29 6-19 19-35 38-48 0 0 3-22 3-35-3 0-3-39-77-48-73-10-89-35-102-48-13-13-16-77-16-77l480 0c0 26-6 51-19 74-13 12-29 38-103 48-73 9-67 51-70 54 0 6 0 32 0 32 16 13 29 32 35 51 13 3 23 13 29 26 0 0 6 48-13 48 0 0-22 0-19 9 3 10 3 20 0 26 0 13 3 42-26 45-3 3-9 3-12 3-10 0-13 32-29 32z m-9-279c0-6 3-13 9-16 0 0 4 0 4 0l9 0c3 7 10 13 13 16l32-115-32-112-29 0-35 115z"/>
<glyph glyph-name="book-large" unicode="&#98;" d="M112 99l0-32 256 0c38 0 29 29 29 29l0 307-32 13 0-288c0-3 0-3 0-6-3-16-19-29-35-26l-218 0z m320 346l-96 35c0 19-13 32-32 32l-224 0c-19 0-32-13-32-32l0-352c0 0 10-128 67-128l314 0c16 3 29 16 29 29l3 384c0 16-13 32-29 32z m0-384c0 0 0-3 0-3-3-16-16-29-32-26l-288 0c-13 32-26 64-32 96l224 0c19 0 32 13 32 32l0 291 96-41z"/>
<glyph glyph-name="mail" unicode="&#110;" d="M34 444c-17 0-34-14-34-31l205-188c31-24 71-24 102 0l205 185c0 17-14 34-31 34z m-34-69l102-102-68-164 99 130 65-51c0 0 75-34 113 0l64 51 103-137-68 171 102 102 0-276c0-20-17-34-38-31l-440 0c-17 0-34 17-34 34z"/>
<glyph glyph-name="menu-arrow-11x" unicode="&#111;" d="M256 512c-143 0-256-113-256-256 0-143 113-256 256-256 143 0 256 113 256 256 0 143-113 256-256 256z m139-234l-113-117-8-7c-11-11-25-11-36 0l-8 7-113 117c-11 11-11 26 0 37l7 7c11 11 26 11 33 0l99-99 95 99c11 11 26 11 33 0l7-7c15-11 15-26 4-37z"/>
<glyph glyph-name="menu-arrow-21x" unicode="&#112;" d="M480 256l-448 256 0-512z"/>
<glyph glyph-name="menu-icon-briefcase1x" unicode="&#113;" d="M496 32l-480 0c-10 0-16 6-16 16l0 218c3-7 10-10 16-10l176 0 0-48c0-10 10-16 16-16l96 0c10 0 16 6 16 16l0 48 176 0c6 0 13 3 16 10l0-218c0-10-6-16-16-16z m-224 288c10 0 16-10 16-16l0-64c0-10-6-16-16-16l-32 0c-6 0-16 6-16 16l0 64c0 6 10 16 16 16z m224-32l-176 0 0 48c0 6-6 16-16 16l-96 0c-6 0-16-10-16-16l0-48-176 0c-6 0-13-6-16-13l0 125c0 6 6 16 16 16l144 0 0 16c0 26 22 48 48 48l96 0c29 0 48-22 48-48l0-16 144 0c10 0 16-10 16-16l0-122c-3 4-10 10-16 10z m-214 160l-48 0c-13 0-26-10-26-22 0-16 16-10 16-10l64 0c0 0 16-3 16 10 0 12-10 22-22 22z"/>
<glyph glyph-name="menu-icon-bubble1x" unicode="&#114;" d="M438 134c-25-25-182-134-182-134l0 67c-141 0-256 99-256 224 0 125 115 224 256 224 141 0 256-99 256-224 0-61-29-118-74-157z m-310 186c-19 0-35-16-32-32 0-19 16-32 35-32 19 0 32 16 32 32-3 19-19 32-35 32z m128 0c-19 0-32-16-32-32 0-19 16-32 35-32 19 0 32 16 32 32-3 19-19 32-35 32z m128 0c-19 0-32-16-32-35 0-19 16-32 35-32 19 0 32 16 32 32-3 22-19 35-35 35z"/>
<glyph glyph-name="menu-icon-mac1x" unicode="&#115;" d="M480 128l-448 0c-19 0-32 13-32 32l0 320c0 19 13 32 32 32l448 0c19 0 32-13 32-32l0-320c0-19-13-32-32-32z m0 320c0 19-13 32-32 32l-384 0c-19 0-32-13-32-32l0-224c0-19 13-32 32-32l384 0c19 0 32 13 32 32z m-288-400l0 48 128 0 0-48c22-6 42-19 61-32 16-16-16-16-16-16l-218 0c0 0-32 0-16 16 19 13 39 26 61 32z"/>
<glyph glyph-name="menu-icon-medizin1x" unicode="&#116;" d="M426 16l-340 0c-48 0-86 35-86 83l0 218c0 45 38 83 86 83l343 0c45 0 83-38 83-83l0-218c0-48-38-83-86-83z m-74 224l-64 0 0 64-64 0 0-64-64 0 0-64 64 0 0-64 64 0 0 64 64 0z m-32 192c0 19-13 32-32 32l-64 0c-19 0-32-16-32-32l0-32-32 0 0 48c0 26 22 48 48 48l96 0c26 0 48-22 48-48l0-48-32 0z"/>
<glyph glyph-name="menu-icon-pill1x" unicode="&#117;" d="M472 271l-234-234c-66-52-158-37-209 29-40 51-40 128 0 179l234 234c66 51 158 37 209-29 44-51 44-125 0-179z m-296 65l-77-76c-4-8-8-11-15-15l-11-11c-44-44-44-113 0-154 44-43 114-43 154 0l14 15c4 4 8 11 11 15l77 77z"/>
<glyph glyph-name="menu-icon-presentation1x" unicode="&#118;" d="M448 448l0 32 32 0 0-32z m-352-32l320 0 0-256-320 0z m192-224l96 0 0 32-96 0z m0 64l96 0 0 32-96 0z m0 128l-160 0 0-32 160 0z m-112-190c26 0 46 21 46 47 0 26-22 47-48 47-26 0-47-21-47-47 1-27 22-48 49-47z m-80 286l128 0 0 32 64 0 0-32 128 0 0-32-320 0z m352-384l-384 0 0 32 384 0z m-416 384l32 0 0-32-32 0z m192-416l-32-64-64 0 32 64z m160-64l-64 0-32 64 64 0z"/>
<glyph glyph-name="menu-icon-statistics1x" unicode="&#119;" d="M448 64l-106 0 26-64-48 0-26 64-76 0-26-64-48 0 26 64-106 0c-10 0-16 10-16 16 0 6 6 16 16 16l384 0c10 0 16-6 16-16 0-10-6-16-16-16z m-32 64l-320 0c-16 0-32 13-32 29l0 227c0 16 13 32 32 29l323 0c16 0 32-13 32-29l0-227c-3-16-16-29-35-29z m-102 214l38-35-80-80-48 45-22 22-112-112 22-22 90 90 70-68 106 106 35-32 13 99z m-122 106l0 32 32 0 0 10c6 19 29 25 45 19 9-3 16-10 19-19l0-10 32 0 0-32z"/>
<glyph glyph-name="mortarboard" unicode="&#120;" d="M44 64l-18 54c12 2 20 13 18 25-3 11-11 18-21 18-13 0-20-10-20-20 0-10 10-21 20-21l-23-56z m-24 236l-10-128 21 0 0 120z m236 148l-256-118 256-118 256 118z m-148-315c12 3 28 5 43 5 44-2 85-23 110-56l5 0c26 33 67 54 108 56 15 0 28-2 43-5l0 128-161-74-148 66z"/>
<glyph glyph-name="mouse-wires" unicode="&#121;" d="M120 211l0 75c0 39 61 75 121 75l0-30c-18 0-30-12-30-30l0-60c3-15 15-27 30-30z m272 3l0 72c0 45-64 75-121 75l0-30c18 0 30-15 30-30l0-60c0-18-15-30-33-27z m-272-30l0-76c0-60 46-108 103-108 0 0 3 0 3 0l57 0c60 0 109 48 109 105l0 76z m121 180c0 0 9 61-27 61-42 3-69 39-66 78 3 3 3 6 3 9l30 0c-6-30 12-60 39-66 60-6 51-82 51-82z m15-63c9 0 15-6 15-15l0-30c0-6-6-15-15-15-9 0-15 9-15 15l0 30c0 9 6 15 15 15z"/>
<glyph glyph-name="notes1x" unicode="&#122;" d="M128 80l-96 0 0 96 96 0z m-64 32l32 0 0 32-32 0z m64 96l-96 0 0 96 96 0z m-64 32l32 0 0 32-32 0z m416-240l-416 0 0 46 32 0 0-14 352 0 0 448-352 0 0-16-32 0 0 48 416 0z m-352 336l-96 0 0 96 96 0z m-64 32l32 0 0 32-32 0z m320-336l-32 0 0 448 32 0z"/>
<glyph glyph-name="phone-handle1x" unicode="&#65;" d="M480 272l-96 0c-10 0-16-6-16-16 0-10 6-16 16-16l96 0c10 0 16 6 16 16 0 10-6 16-16 16z m-106 56l90 34c8 3 13 12 10 20-4 8-13 13-21 10l-90-34c-8-3-13-12-9-20 3-8 12-13 20-10z m90-178l-90 34c-8 3-17-2-20-10-4-8 1-17 9-20l90-34c8-2 17 3 19 11 3 8 0 16-8 19z m-224 362l-128 0c-5 0-8-2-13-2-3-3-6-4-9-8-4-3-74-86-74-246 0-160 67-237 69-242 1-1 1-3 3-3 0 0 2-1 2-1 3-4 4-5 9-7 0 0 2 0 2-1 3 0 8-2 11-2l128 0c18 0 32 14 32 32l0 128c0 18-14 32-32 32l-64 0 0 128 64 0c18 0 32 14 32 32l0 128c0 18-14 32-32 32z m0-352l0-128-32 0 0 128z m-96 160l0-128c0-18 14-32 32-32l0-128-62 0-2 2c0 0-2 1-2 1-16 19-62 91-62 221 0 141 58 216 64 224l64 0 0-128c-18 0-32-14-32-32z m96 32l-32 0 0 128 32 0z"/>
<glyph glyph-name="printer" unicode="&#66;" d="M181 120l-61-90 272 0-61 90z m313 106l-90 60c-6 9-18 15-28 15l-256 0c-12 0-24-6-30-15l-75-60c-9-6-15-18-15-27l0-79c-3-15 6-27 21-30 3 0 6 0 9 0l90 0 0 46c0 9 10 15 19 15l240 0c10 0 16-6 16-15l0-46 84 0c18 0 30 12 33 30l0 76c-6 12-9 21-18 30z m-313 105l150 0 0 91-60 60-75 0c-15 0-15-30-15-30z m69 118l45-45c0 0 15-12-6-12l-33 0c-9 0-15 6-15 12l0 33c0 0-3 24 9 12z"/>
<glyph glyph-name="ringer" unicode="&#67;" d="M211 466l-5 30 96 16 5-32z m223-386l-354 0 32 210c0 80 64 144 144 144 80 0 144-64 144-144z m-320 32l284 0-30 176c0 62-50 112-112 112-62 0-112-50-112-112l0-3z m78 46l-32 5 16 127c0 44 35 80 80 80l0-32c-26 0-48-21-48-48l0-10z m64-158c-27 0-48 21-48 48l32 0c0-10 6-16 16-16 10 0 16 6 16 16l32 0c0-26-21-48-48-48z"/>
<glyph glyph-name="search-icon1x" unicode="&#68;" d="M501 80c-58 48-99 85-117 103-4 0-4 4-7 7-4 7-8 15-8 22 0 0 0 4 0 4 0 3 4 11 4 14 48 99 7 216-91 264-22 11-52 18-85 18-109 0-197-88-197-197 0-110 88-198 197-198 30 0 63 7 88 22 0 0 0 0 4 0 4 0 7 4 11 4 7 0 15-4 22-8 0 0 3-3 3-3 19-19 59-59 107-114 18-18 47-18 65 0 19 15 19 44 4 62z m-197 128c-30-25-66-43-107-43-80 0-146 65-146 146 0 80 66 146 146 146 81 0 147-66 147-146 0-37-15-73-40-103z"/>
<glyph glyph-name="socail-xing1x" unicode="&#69;" d="M484 512l-456 0c-16 0-28-12-28-28l0-454c0-16 12-30 28-30l456 0c16 0 28 12 28 28l0 456c0 16-12 28-28 28z m-321-335l-57 0c-2 0-6 0-8 4 0 2 0 6 0 8l62 106-40 67c-2 2-2 6 0 8 2 4 6 6 8 6l57 0c6 0 14-4 16-10 0 0 39-67 39-69-2-4-61-108-61-108-2-8-10-12-16-12z m268 264l-126-222 81-146c2-2 2-6 0-8-2-6-4-6-8-6l-57 0c-8 0-14 4-16 12 0 0-81 148-81 148 4 7 127 224 127 224 3 6 9 10 15 10l57 0c4 0 6-2 8-4 2-2 2-6 0-8z"/>
<glyph glyph-name="social-facebook1x" unicode="&#70;" d="M484 512l-456 0c-16 0-28-12-28-28l0-454c0-18 12-30 28-30l246 0 0 199-67 0 0 77 67 0 0 57c0 67 41 102 100 102 20 0 40 0 59-2l0-69-41 0c-32 0-38-15-38-37l0-51 77 0-10-77-67 0 0-199 130 0c16 0 28 12 28 28l0 456c0 16-12 28-28 28z"/>
<glyph glyph-name="social-linkedin1x" unicode="&#71;" d="M475 512l-438 0c-19 0-37-16-37-37l0-438c0-19 18-37 37-37l438 0c19 0 37 16 37 37l0 438c0 21-18 37-37 37z m-323-435l-75 0 0 244 77 0 0-244z m-38 277c-25 0-45 20-45 44 0 23 20 43 43 43 26 0 46-20 46-43 0-26-20-46-44-44z m323-277l-77 0 0 118c0 28 0 65-39 65-39 0-45-32-45-63l0-120-77 0 0 244 73 0 0-33 2 0c15 25 43 41 71 39 76 0 90-51 90-116z"/>
<glyph glyph-name="tags-2" unicode="&#72;" d="M485 301l-190 169c-21 9-42 12-60 9l214-202c21-15 27-42 12-63 0 0-166-184-163-184 21-6 42-3 60 12l139 151c24 33 21 81-12 108z m-66-36l-229 208c-15 15-184 9-184 9 0 0-12-211 0-214l202-229c15-15 39-15 54 0l145 160c18 24 39 51 12 66z m-314 111c-15-15-42-15-57 0-15 16-15 40 0 55 15 15 39 15 57 0 15-12 15-36 0-55z"/>
<glyph glyph-name="users1x" unicode="&#73;" d="M194 224c-80 0-144 64-144 144 0 80 64 144 144 144 80 0 144-64 144-144 0-80-64-144-144-144z m0 256c-63 0-112-50-112-112 0-62 49-112 112-112 62 0 112 50 112 112 0 62-50 112-112 112z m176-256l0 32c44 0 80 35 80 80 0 45-36 80-80 80l0 32c62 0 112-50 112-112 0-62-50-112-112-112z m144-192l-96 0 0 32 59 0-13 83-51 15 8 30 72-19z m-125-32l-389 0 19 166 77 24 10-30-56-18-13-110 315 0-13 110-56 18 10 30 75-24z"/>
<glyph glyph-name="bullet-icon-inactive1x" unicode="&#100;" d="M256 512c-142 0-256-114-256-256 0-142 114-256 256-256 142 0 256 114 256 256 0 142-114 256-256 256z m0-398c-80 0-142 62-142 142 0 80 62 142 142 142 80 0 142-62 142-142 0-80-62-142-142-142z"/>
<glyph glyph-name="bullet-icon1x" unicode="&#99;" d="M512 256c0-141-115-256-256-256-141 0-256 115-256 256 0 141 115 256 256 256 141 0 256-115 256-256z"/>
<glyph glyph-name="icon-1" unicode="&#101;" d="M256 0c141 0 256 115 256 256 0 142-115 256-256 256-142 0-256-115-256-256 0-141 115-256 256-256z m-222 256c0 123 99 222 222 222 123 0 222-99 222-222 0-123-99-222-222-222-123 0-222 99-222 222z m114 21l23 0c12 0 20-9 20-20l0-65c0-12-9-20-20-20l-23 0c-12 0-20 9-20 20l0 65c0 11 9 20 20 20z m85 118l35 0c12 0 20-9 20-20l0-183c0-12-9-20-20-20l-34 0c-12 0-21 9-21 20l0 182c0 12 9 21 20 21z m96-64l33 0c12 0 21-10 21-21l0-119c0-11-10-20-21-20l-33 0c-12 0-20 9-20 20l0 119c0 12 9 21 20 21z m-212-181l278 0 0-22-278 0z"/>
<glyph glyph-name="icon-2" unicode="&#102;" d="M363 24l0-2-4 0c-131-57-281 2-338 132-56 130 3 280 132 337 130 56 281-3 338-132 56-128-1-277-128-335z m-235 51l0 1-3 0c1 0 3 0 3-1z m128 403c-122 0-222-99-222-221 0-50 16-99 48-138 10 24 40 74 121 81l46-98 5 32 25 0 5-32 44 98c0 0 81-20 115-63 67 103 36 240-67 306-36 23-77 35-120 35z m91-179c0-11-14-18-14-18-2-24-22-53-22-53-14-34-63-26-63-26-28 3-33 40-33 40-9 6-19 37-19 37-9 0-12 13-12 13-1 7 2 15 8 19-25 59 21 81 21 81 32 46 75 11 75 11 46 11 52-38 52-38 9-19-4-55-4-55 9 0 11-11 11-11z m-94-115l25 0c13 0 13-15 6-24l-3-4c-3-4-8-6-12-6l-8 0c-5 0-10 2-13 6l-3 4c-6 9-6 24 8 24z"/>
<glyph glyph-name="icon-3" unicode="&#103;" d="M501 183l0-2c-41-135-184-211-320-170-135 41-211 184-170 320 41 135 184 211 320 170 74-23 134-77 163-149l8 0 0-23c14-48 14-98-1-146z m-193-2l-52 0 0 171 200 0c-53 110-186 158-296 104-110-53-158-186-104-296 53-110 186-158 296-104 53 25 93 70 113 125l-81 0 0-76z m-212 32l139 0 0-21-139 0z m21 43l118 0 0-21-118 0z m43 43l75 0 0-22-75 0z m42 42l33 0 0-21-33 0z"/>
<glyph glyph-name="icon-4" unicode="&#104;" d="M256 0c-141 0-256 114-256 256 0 142 115 256 256 256 141 0 256-115 256-256 0-142-115-256-256-256z m0 478c-123 0-222-99-222-222 0-123 99-222 222-222 123 0 222 99 222 222 0 123-99 222-222 222z m-139-242l75 0 0-23c0-6 8-21 18-21l92 0c11 0 18 15 18 21l0 23 75 0 0-118-278 0z m85-97l107 0 0 21-107 0z m0 63l0 43 11 0 0 11-11 0 0-11-53 0 0 96 213 0 0-96-53 0 0 11-33 0 0-11 33 0 0-43z m-21 64l43 0 0 11-43 0z m11 33l-11 0 0-11 10 0 0 11z m96 21l-64 0 0-11 64 0z m11-54l32 0 0 11-32 0z m32 22l0 11-129 0 0-11z m-43-22l0 11-54 0 0-11z m-64-10l0-11 42 0 0 11z m53-21l-64 0 0-11 64 0z m22 0l-11 0 0-11 11 0z m-182 149l278 0 0-33-278 0z"/>
<glyph glyph-name="icon-5" unicode="&#105;" d="M363 24l0-2-4 0c-79-35-172-27-244 21l-8 0 0 6c-115 82-142 242-59 357 83 114 243 141 358 58 114-83 141-243 58-358-26-35-61-64-101-82z m-107 454c-123 0-222-99-222-222 0-43 12-86 37-122 18 76 83 68 83 68l2 20c-48 2-57 32-57 32 15 4 27 15 30 30-4 121 70 107 70 107 56-7 59-90 59-90 6-44 39-48 39-48-39-40-51-32-51-32l0-18c16 0 32-5 45-14 0 0 27-13 31-71l22 0c-1 21-8 61-31 78l-1 0c9 6 17 13 24 21 8 4-2 32-2 32-19 35-13 57-13 57 5 7 7 43 7 43 10 43 45 14 45 14 67-20 52-61 52-61-1-7-1-14 0-22 14-16-6-32-6-32-1-9-3-17-6-25 2-15 31-30 54-39 40 115-22 242-138 282-24 8-49 12-73 12z"/>
<glyph glyph-name="icon-6" unicode="&#106;" d="M256 0c141 0 256 114 256 256 0 142-115 256-256 256-141 0-256-115-256-256 0-142 115-256 256-256z m-222 256c0 123 99 222 222 222 123 0 222-99 222-222 0-123-99-222-222-222-123 0-222 99-222 222z m211 64l128 0 0-32-128 0z m0-65l128 0 0-32-128 0z m0-62l128 0 0-32-128 0z m-95 123l11-11c1-3 4-3 7-2 1 0 1 1 1 2l23 24c2 2 4 2 6 0l8-8c0 0 3-2-1-5l-37-36c-2-3-5-3-7-1 0 0 0 0 0 1l-24 23c-2 2-2 4-1 7l8 7c2 1 4 1 6-1z m0-65l11-11c1-2 4-3 7-1 1 0 1 0 1 1l23 25c2 1 4 1 6 0l8-8c0 0 3-3-1-6l-37-36c-2-2-5-2-7-1 0 0 0 0 0 1l-24 24c-2 1-2 4-1 6l8 8c2 1 4 0 6-2z m0-66l11-11c1-2 4-3 7-1 1 0 1 0 1 1l23 24c2 2 4 2 6 0l8-7c0 0 3-3-1-6l-37-36c-2-2-5-2-7-1 0 0 0 0 0 1l-24 24c-2 1-2 3-1 6l8 8c2 0 4 0 6-2z"/>
<glyph glyph-name="icon-7" unicode="&#107;" d="M256 0c-141 0-256 115-256 256 0 141 115 256 256 256 141 0 256-115 256-256 0-142-114-256-256-256z m0 478c-123 0-222-99-222-222 0-123 99-222 222-222 123 0 222 99 222 222 0 123-99 222-222 222z m112-176l21 0 0-21-21 0z m11-52l0-54c0-1 0-4-1-5l0 6-242 0 0-4c0 1 0 2 0 3l0 54c0 12 10 22 22 22l200 0c11 0 21-10 21-22z m-190 0l-31 0 0-22 31 0z m168 0l-32 0 0-22 32 0z m-84 31l0 10 11 0 0-10z m21 21l21 0 0-10-31 0 0 10z m31-21l-10 0 0 10 10 0z m-63 74l0-10 11 0 0-10-32 0 0 10 11 0 0 10z m81-73c0 0 0 1 0 1 0 0-22 72-38 72l-92 0c-16 0-38-72-38-72 0 0 0-1 0-1-9 2-15 11-15 20 0 0 25 76 43 76l112 0c18 0 43-76 43-76 0-10-7-18-15-20z m-218 20l22 0 0-21-22 0z m32-115l31 0 0-11 137 0 0 11 32 0 0-11 5 0c-1 0-3 0-4 0l-1 0 0-31-32 0 0 31-136 0 0-31-31 0 0 31c-2 0-4 0-5 0l5 0z"/>
<glyph glyph-name="icon-8" unicode="&#108;" d="M256 512c-141 0-256-115-256-256 0-141 115-256 256-256 141 0 256 115 256 256 0 141-115 256-256 256z m222-256c0-123-99-222-222-222-123 0-222 99-222 222 0 123 99 222 222 222 123 0 222-99 222-222z m-129-128l-43 42 0 25-18 18c-45-33-108-23-141 22-33 45-23 108 22 141 45 33 108 23 141-22 30-42 25-100-12-134l19-19 22 0 42-43 0-31z m-35 165c0 46-38 84-85 84-46 0-84-38-84-84 0-46 38-84 84-84 47 0 85 38 85 84z"/>
<glyph glyph-name="icon-9" unicode="&#109;" d="M256 512c-141 0-256-115-256-256 0-141 115-256 256-256 141 0 256 115 256 256 0 141-115 256-256 256z m222-256c0-123-99-222-222-222-123 0-222 99-222 222 0 123 99 222 222 222 123 0 222-99 222-222z m-260-33c0 0 83 87 178 139 0 0-155-169-160-234l-110 110 35 35z"/>
<glyph glyph-name="parking" unicode="&#80;" d="M45 511l322 0c40 0 104 6 128-11 21-16 16-65 16-102l0-276c0-40 7-94-16-110-21-16-73-10-109-10l-267 0c-45 0-94-7-112 21-6 11-6 28-6 46l0 320c0 29-5 80 6 100 6 8 15 16 25 19 4 1 9 2 13 3z m142-304c60-1 139-5 178 17 23 14 41 35 50 62 8 23 11 50 5 75-8 40-39 72-79 83-33 8-83 4-123 4l-61 0c-12 1-25 0-36-2-8-13-4-64-4-84l0-277c-1-8-1-17 1-24 1-3 5-7 9-7 5-1 10-1 15-1 14-1 28 0 41 2 2 3 3 4 4 5z m0 177l86 0c16 1 33 0 49-4 18-8 25-24 30-45 2-14-1-27-9-38-22-36-98-26-154-26-2 12-2 23-1 35z"/>
<glyph glyph-name="pdf" unicode="&#81;" d="M32 157c0 47 0 95 0 141 0 1 1 2 1 2 2 12 12 21 25 22 4 0 8 0 12 0 0 0 1 0 2 0 0 1 0 2 0 2 0 31 0 61 0 92 0 18 0 36 0 54 0 9 7 16 16 19 1 0 2 0 2 1 81 0 162 0 243 0 4-1 7-4 9-6 32-33 62-66 94-99 2-2 4-5 4-9 0-1 0-2 0-2 0-17 0-33 0-50 0 0 0-1 0-2 1 0 2 0 3 0 4 0 8 0 11 0 12-1 23-9 25-20 0-1 1-2 1-2 0-48 0-96 0-144-1-2-1-3-1-4-4-11-14-18-27-19-3 0-7 0-10 0-1 0-2 0-2 0 0-1 0-2 0-2 0-30 0-59 0-89 0-1 0-2 0-3-1-9-7-15-16-17 0 0 0 0 0-1-112 0-223 0-334 0-1 0-1 0-2 1-4 0-7 2-9 5-4 4-5 8-5 13 0 30 0 60 0 90 0 1 0 2 0 2-1 0-2 0-3 0-3 0-7 0-10 0-14 0-25 10-28 22 0 2-1 3-1 3z m388 212c-1 0-2 0-3 0-12 0-24 0-36 0-16 0-32 0-48 0-7 0-11 5-10 10 0 3 0 6 0 9 0 27 0 54 0 81 0 1 0 1 0 3-77 0-153 0-230 0 0-50 0-100 0-149 0 0 0 0 0 0 109 0 217 0 325 0 1 0 1 0 1 0 1 15 1 30 1 46z m-327-324c0 0 0 0 0 0 109 0 217 0 325 0 1 0 1 0 1 0 0 30 0 59 0 88-2 1-326 0-327 0 1-29 1-58 1-88z m112 111c1 0 1 0 2 0 4 0 9 0 13-1 14-1 27-1 41 0 10 1 20 2 30 6 8 2 15 6 21 11 11 9 18 20 21 33 4 11 4 22 2 34-1 9-3 17-9 24-8 12-19 21-34 25-10 3-21 4-32 5-16 1-33 0-50-2-1 0-3 0-5 0 0-45 0-90 0-135z m-94 48c1 0 2 0 4 0 6 0 12 0 19 0 7 1 16 3 23 6 11 5 20 13 23 24 3 8 4 15 3 23-3 14-11 25-25 30-9 4-18 5-27 5-18 1-34 0-51-2-1 0-1 0-2-1 0-45 0-90 0-135 2 0 31 0 33 0 0 18 0 34 0 50z m334 7c0 8 0 16 0 25-6 0-12 0-18 0-6 0-12 0-17 0-6 0-12 0-18 0 0 3 0 29 0 31 19 0 38 0 57 0 0 2 0 24 0 25-30 0-61 0-91 0 0-46 0-92 0-137 11 0 23 0 34 0 0 18 0 36 0 55 18 1 35 1 53 1z m-206-32c0 30 0 59 0 89 2 0 4 1 5 1 8 0 16 0 24-1 10-3 19-8 24-16 4-5 6-11 7-17 1-10 1-19-2-28-5-15-16-25-33-28-8-2-16-2-25-1 1 1 0 1 0 1z m-128 90c2 0 3 1 5 1 6 1 12 1 18-1 2 0 4-1 6-2 6-3 9-8 10-14 1-3 0-7 0-10-2-6-6-10-12-13-3-2-7-2-11-3-5 0-11 0-16 1 0 0 0 0 0 0 0 14 0 27 0 41z"/>
<glyph glyph-name="zu-fuss" unicode="&#83;" d="M456 248l-69-15-6-82 54-133-36-18-59 120-7 64-28-51-8-130-36-3 3 138 38 115-10 64-28-17-23-8-3-8 21 0 0-46-41 0 18-92-26 0-3-18 36-100-33-13-38 108 0 23-11 0-15-23 5-110-31 0-5 120 8 13-18 0 28 92 5 51-13-18-51-38-18 23 59 49 23 69 18 15 41 5 39-61 33 18 31 69 12 15 31 8 46-23 49-74-13-39 15 3z m-77 105l5-53 10 2 5 31z m-74 82c-21 0-36 18-36 39 0 20 15 38 36 38 20 0 38-18 38-38 0-21-18-39-38-39z m-139-38c-15 0-30 13-30 31 0 17 12 30 30 30 18 0 31-13 31-30 0-18-13-31-31-31z"/>
<glyph glyph-name="video" unicode="&#89;" d="M314 431l-271 0c-24 0-43-19-43-43l0-264c0-24 19-43 43-43l271 0c24 0 43 19 43 43l0 264c0 24-19 43-43 43z m183-43l-110-105 0-55 110-105 15 0 0 265z"/>
<glyph glyph-name="mit-den-ov" unicode="&#84;" d="M461 289l-20 133c0 0-3 75-181 85l-10 0c-176-10-181-85-181-85l-18-133 0-219 35 0c0-2 0-5 0-5l0-28c0-17 13-30 31-30 15 0 30 13 30 30l0 28c0 3 0 5 0 5l226 0c0-2 0-5 0-5l0-28c0-17 12-30 30-30 15 0 30 13 30 30l0 28c0 3 0 5 0 5l35 0z m-284 183l158 0c3 0 8-2 8-7 0-3-3-5-8-8l-158 0c-3 0-8 3-5 8 0 5 2 7 5 7z m-63-339c-15 0-30 12-30 30 0 15 12 30 30 30 15 0 30-12 30-30 0-18-12-30-30-30z m143 131l-153 0c0 0-18-3-18 20 5 42 15 120 15 120 0 10 11 15 18 15 0 0 3 0 3 0l266 0c10 3 18-2 20-12 0 0 0-3 0-3 0 0 10-78 15-120 3-23-17-20-17-20z m141-131c-15 0-30 12-30 30 0 18 12 30 30 30 15 0 30-12 30-30 0-18-15-30-30-30z"/>
<glyph glyph-name="map" unicode="&#79;" d="M405 466c47 1 68-17 84-46 8-18 10-37 5-56-4-11-9-21-15-31-10-20-20-40-30-59-8-16-16-32-24-48-3-6-4-15-10-19-2 6-5 11-9 16-6 12-12 25-17 36-5 6-6 15-10 22-11 19-20 40-31 60-12 27-18 58-1 86 10 15 23 26 40 34 6 2 14 1 18 5z m7-33c-4-2-8-2-13-3-12-6-22-15-27-28-13-32 17-75 50-67 18 2 33 14 40 30 15 38-16 69-50 68z m-315-129l47-46c5-5 10-15 19-17 7 7 15 12 24 16 15 10 31 22 46 33 9 4 16 9 23 15 1 0 2-1 2-1 8-4 16-10 24-16 16-11 31-20 47-30 8-5 15-15 25-16 1 1 6 7 7 6 6-10 11-19 15-29 1-4-5-3-4-10 4-24 10-52 16-76 2-9 5-41 10-44 6 3 12 7 17 9 13 7 26 14 38 20 6 2 11 5 16 9-4 6-7 13-10 20-6 12-17 25-19 39 7 10 12 22 17 34l1 0c4-8 7-17 12-24 10-19 19-38 28-57 1-4 12-27 11-27-7-7-20-10-30-15-22-12-43-22-66-34-6-3-28-17-32-15-12 4-23 10-34 17-20 11-41 18-61 29-6 3-29 18-34 16-12-4-24-10-35-17-20-11-40-18-60-29-6-4-29-18-34-16-15 3-28 13-41 20-24 13-53 28-82 42z m141-51c-4-4-9-7-15-10-10-6-21-15-31-22-6-4-15-7-17-14-6-9-5-24-7-35-7-26-13-52-16-79l2 0c5 4 12 8 20 10 14 8 29 16 44 24 9 3 16 6 23 11l0 115z m35 0l0-115c21-9 42-20 63-31 8-5 17-10 26-13-8 39-15 77-23 117-17 9-33 20-48 31-6 4-12 8-18 11z m-169-5c-3-14-13-28-20-40-14-28-28-56-41-84 7-2 12-5 17-9 12-6 23-10 35-16 7-4 14-8 22-11 8 42 16 84 24 125-11 8-25 31-37 35z"/>
<glyph glyph-name="mit-dem-fahrrad" unicode="&#85;" d="M110 243c-61 0-110-48-110-107 0-59 49-110 110-110 62 0 110 48 110 110-2 59-51 107-110 107z m0-199c-51 0-92 40-92 92 0 51 41 92 92 92 51 0 92-41 92-92-2-52-43-92-92-92z m292 199c-62 0-110-48-110-110 0-61 48-110 110-110 61 0 110 49 110 110 0 62-49 110-110 110z m0-199c-51 0-92 40-92 92 0 51 41 92 92 92 51 0 92-41 92-92 0-52-41-92-92-92z m-31 281c0 18-36 15-36 15l-28 0c-15 29-33 54-54 75-12 7-28 5-35-5-29-29-54-57-77-90-10-13-8-33 5-44l87-53 0-95c0-13 10-23 23-23 13 0 23 10 23 23l0 115c0 8-5 16-10 21 0 0 0 0-3 0l-56 36 46 51 31-44 56 0c26 0 28 10 28 18z m-66 82c23 0 41 18 41 41 0 23-18 38-41 38-23 0-41-18-41-41 2-20 20-38 41-38z"/>
<glyph glyph-name="it-lehre-4" unicode="&#77;" d="M365 229l-98 11c0 0-3 122-5 143-2 21-9 25-16 29-27 4-26-15-26-15l0-215c0 0-3 0-37 39-44 50-71 11-71 11 22-15 75-101 113-159 39-58 75-73 90-73 64 0 77 64 77 64 0 0 12 87 12 126 0 40-39 39-39 39z m-168 39l0 23c-53 20-80 79-60 132 19 53 79 80 132 61 53-20 80-80 60-132-8-24-26-44-49-56l0-24c64 26 95 99 68 162-25 64-99 95-162 69-64-26-95-99-68-163 13-35 43-61 79-72z"/>
<glyph glyph-name="it-lehre-3" unicode="&#76;" d="M456 309c-25 0-48-17-53-43l-89 0-84 97c-2 2-5 3-7 3l-53 0 0 27-75 0 0-75 75 0 0 30 48 0 70-82-217 0 0 49-69-60 69-60 0 47 280 0-73-73-41 0c-3 24-26 41-50 37-23-4-40-26-36-50 3-24 26-41 50-37 17 3 30 16 35 32l46 0c3 0 5 1 7 2l89 89 26 0c6-28 36-47 65-40 29 7 47 36 41 65-7 25-28 42-54 42z"/>
<glyph glyph-name="mit-dem-auto" unicode="&#86;" d="M463 323l-39 98c-7 28-33 47-63 44l-210 0c-28 3-56-16-63-44l-39-98c-28-4-49-30-49-58l0-132 42 0 0-49c0-21 16-37 37-37 21 0 37 16 37 37l0 49 273 0 0-49c0-21 16-37 37-37 21 0 37 16 37 37l0 49 49 0 0 132c0 28-21 54-49 58z m-335 91c5 10 14 14 23 14l210 0c9 0 18-4 23-14 5-11 23-65 33-88l-322 0c7 21 28 77 33 88z m-44-209c-23 0-40 18-40 39 0 24 19 40 40 40 21 0 39-19 39-40 3-23-16-39-39-39z m344 0c-23 0-39 18-39 39 0 24 18 40 39 40 21 0 40-19 40-40 0-23-19-39-40-39z"/>
<glyph glyph-name="it-lehre-2" unicode="&#75;" d="M53 90l429 0c29 17 38 56 20 84-11 18-31 29-52 29-6 0-13-1-19-4-1 25-19 46-44 51 3 6 3 14 3 21 0 41-33 73-73 73-15 0-30-4-41-13-11 62-69 101-130 90-59-11-99-69-88-130 2-12 6-25 13-36-47-9-78-54-69-101 5-29 24-52 51-64z"/>
<glyph glyph-name="calendar" unicode="&#88;" d="M20 20c0-11 9-20 20-20l430 0c11 0 20 9 20 20l0 345-470 0z m365 303l67 0 0-85-67 0z m0-107l67 0 0-73-67 0z m0-91l67 0 0-85-67 0z m-109 198l89 0 0-85-89 0z m0-107l89 0 0-73-89 0z m0-91l89 0 0-85-89 0z m-125 198l103 0 0-85-103 0z m0-107l103 0 0-73-103 0z m0-91l103 0 0-85-103 0z m-93 198l71 0 0-85-71 0z m0-107l71 0 0-73-71 0z m0-91l71 0 0-85-71 0z m414 329l-85 0 0 58-40 0 0-58-182 0 0 58-40 0 0-58-85 0c-11 0-20-9-20-22l0-33 472 0 0 33c0 13-9 22-20 22z"/>
<glyph glyph-name="it-lehre-1" unicode="&#74;" d="M434 139l-66 42-65-41 0 235-303 0 0-319c0-14 12-26 27-26l458 0c15 0 27 12 27 26l0 319-78 0z m51 307l-241 0-31 36-186 0c-15 0-27-12-27-26l0-58 302 0 0 16 132 0 0-16 78 0 0 22c0 14-12 26-27 26z"/>
<glyph glyph-name="info-icon" unicode="&#87;" d="M472 512l-432 0c-22 0-40-18-40-40l0-432c0-22 18-40 40-40l432 0c22 0 40 18 40 40l0 432c0 22-18 40-40 40z m-214-75c7 7 16 11 27 11 10 0 19-3 25-9 6-5 8-13 8-23 0-10-3-19-10-26-8-8-17-11-27-11-10 0-18 3-25 9-6 6-9 13-9 22 0 11 3 20 11 27z m63-333c-17-7-32-12-45-15-14-3-27-5-39-5-12 0-21 4-28 10-6 7-9 16-9 29 0 3 0 7 1 12 0 5 2 12 3 22l27 133-41 7 0 17 86 19 21 0-31-167c-1-6-2-10-2-13-1-3-1-6-1-8 0-9 2-15 6-20 5-5 11-7 18-7 4 0 9 0 14 2 6 1 13 2 20 5z"/>
<glyph glyph-name="pin-map" unicode="&#82;" d="M239 512c96 2 150-48 171-122 6-23 7-47 2-70-8-28-19-54-34-78l-41-80-81-162-1 0c-44 88-88 176-132 264-29 57-37 119 0 176 18 29 46 51 79 63z m7-64l-20-4c-30-11-53-34-63-64-21-65 38-135 104-124 117 19 112 193-21 192z"/>
<glyph glyph-name="child" unicode="&#78;" d="M304 423c-21-6-58-41-78-7 21 12 31 33 65 34 3-4 8-7 14-7 1-3 2-7 3-10 9 4 17 10 24 17l0 3 7 0 0 4c32 14 73-5 85-24 15 9 12 16 37 17l0-3 10 0c1-3 2-5 4-7l7 0 7-10c8-6 15-5 20-14l3 0c1-5-1 1-3-3-21-26-57 2-75 10 1-41-7-79-37-86-9-9-31-7-49-7-11 12-29 10-34 31-13 11-11 38-10 62z m-185 34l38 0 0-3 17-3 17-20 3 0c4-6 0-8 7-14 0-14 4-34 0-45l-3 0 0-7-3 0 0-7-17-14c-1-2-2-5-3-7-6-4-8 0-14-7-37-1-69 3-76 31-8 6-3 7-7 17-8 24 3 36 7 55l14 10 0 4 7 0c1 2 2 5 3 7l10 0z m311-345c0-12 3-34-3-41-4-16-14-18-34-17-4 4 0 1-7 3l-4 10c-6 7-4 31-3 44l-18 0c1-22 3-46-10-54l0-3-20-3c-8 8-13 3-17 17-6 7-4 31-3 44-8 1-16 3-24 7-3 5-6 11-10 15-1 15 2 30 7 44l3 0 0 7 3 0 20 71c-12 7-22 17-31 27l-7 3 0 7-7 3-3 10-7 3 0 7-3-3c-3-3-5-6-7-10l-3 0 0-7-7-3-17-20-20-17 0-65c-6-7 0-20 0-34 1-32 0-62-3-93-10-6-12-12-27-14l0 3-10 0-7 10-3 0 0 72-17 0c1-26 0-51-4-76-4-3-9-5-14-7l0-3c-9-5-29 7-31 10l0 7-4 0 0 190c-35 19-77 76-78 129 8 6 18 8 27 7l7-11 3 0 0-7 7-7 0-6 3 0 0-7 37-41 7 0c1-2 2-5 3-7l17-3c8-3 23-11 38-7l0 3 14 0 0 3 14 3 0 3 7 0 3 7 7 0 34 41 0 8 3 0 0 17 3 0 3 11c17 2 16 3 31-3 3-4 3-9 5-15l3 0 0-13 7-3 0-7 34-37 14-3c11-6 31-21 55-14l0 3 10 0 0 3 10 0c1 2 2 5 3 7l7 0c1 2 2 5 3 7l7 0 14 17 7 3 0 7 10 7 0 7 7 3c3 5 9 29 14 32l24 0c1-3 2-7 3-11l3 0c3-9-17-58-20-64l-7-3-3-14-14-10c-1-3-2-7-3-10-10-8-20-16-31-24l0-10 3 0c1-7 2-14 3-20l3 0 0-14 3 0c2-11 5-23 7-34l3 0c5-14 8-29 7-44-10-8-2-5-7-11-5-7-13-11-22-12z"/>
<glyph glyph-name="phone-header" unicode="&#90;" d="M105 292c43-83 104-144 188-188 17 17 33 34 48 51 16 17 32 24 54 16 26-10 53-13 81-13 26 0 35-10 36-36 0-27 0-55 0-82 0-27-10-37-37-37-108 3-206 37-292 105-81 64-136 148-163 249-11 38-17 78-17 118 0 27 8 37 34 37 28 0 58 0 87 0 22 0 32-10 32-33 0-31 6-61 15-89 5-17 1-29-10-40-17-20-36-39-56-58z m157 220c84 0 166 0 250 0 0-65 0-131 0-198-13 0-24 0-36 0-37 0-75 0-112 0-14 0-24-3-33-12-22-23-45-46-68-69-1 7-1 270-1 279z"/>
</font>
</defs>
</svg>
